-Мексиканский вояж Степаныча- Страна: Россия
Студия: ВСБ
Жанр: комедия, приключения
Год выпуска: 2012
Продолжительность: 01:24:18
Перевод: Не требуется
Субтитры: нет
Оригинальная аудиодорожка: русский
Режиссер: Максим Воронков
В ролях: Илья Олейников, Татьяна Догилева, Михаил Владимиров, Лариса Удовиченко, Алиса Гребенщикова, Борис Грачевский, Жан Даниэль, Михаил Державин, Олег Флеер, Александр Числов, Ирина Дмитракова
Описание: У Степаныча депрессия, он потерял смысл жизни. Но внезапно сама судьба подсказывает ему выход. Из московской тюрьмы в Мексику сбежал Ваха. Степаныч получает задание от спецслужб: ехать вместе со своим старым другом Семеном в Мексику под видом простых туристов, кутить и дебоширить, вести себя как можно заметнее, а когда Ваха не выдержит и попытается убить Степаныча, его обезвредит майор Елена, которая всегда будет рядом под видом жены...
В очередной раз, герой фильма "Мексиканский вояж Степаныча" находит приключений на собственную персону. В этот раз судьба привела его на пустынные просторы Мексики, где жизнь обязательно сведет его с местным наркобароном Ваху Воркутидзе, который собственно и стал главной целью Степаныча. Впереди его ждет не самый простой период жизни, ведь Мексика и ее бандиты, известны собственными нравами. Вооруженные столкновения тут, это самый обычный порядок вещей. Многочисленная мафия. численное преимущество и власть, определенно серьезный противник, но это очевидно, не может остановить Степаныча. Приключения и азарт, единственный приоритет героя, где он готов пойти на любой риск, лишь бы получить желаемый успех.
Дата мировой премьеры: 6 мая 2012
Релиз на DVD : 18 марта 2013, «Новый Диск»

Доп. информация: Издание Новый диск . Плюс сканы коробки и диска.
Бонусы:
Трейлеры фильмов
  • Астерикс и Обеликс в Британии
  • Дублёр
  • Заложница 2
  • Любовный переплёт
  • Любовь с акцентом
  • Облачный Атлас
  • Порочная страсть
  • С новый годом, мамы!
  • Стальная бабочка
  • Судья Дред 3D
    Меню: Есть, русское, озвученное
    Тип релиза: DVD9
    Контейнер: DVD-Video
    Видео: PAL 4:3 720x576@768x576, 25.000 fps, ~7504 kbps
    Аудио: Russian AC3 2.0, 48,0 КГц, 224 kbps

    DVDInfo

    Title: Мексиканский вояж Степаныча (2012) DVD9
    Size: 5.36 Gb ( 5 622 894,00 KBytes ) - DVD-9
    Enabled regions: 1, 2, 3, 4, 5, 6, 7, 8
    VTS_01 :
    Play Length: 00:00:15
    Video: PAL 4:3 (720x576) VBR
    Audio:
    Not specified (Dolby AC3, 2 ch)
    VTS_02 :
    Play Length: 00:00:08
    Video: PAL 4:3 (720x576) VBR
    Audio:
    Not specified (Dolby AC3, 2 ch)
    VTS_03 :
    Play Length: 00:00:01
    Video: PAL 4:3 (720x576) VBR
    Audio:
    Russian (Dolby AC3, 2 ch)
    Japanese (Dolby AC3, 2 ch)
    VTS_04 :
    Play Length: 01:24:18
    Video: PAL 4:3 (720x576) VBR
    Audio:
    Russian, AC3, 2/0 (L,R) ch, 224 kbps, Delay 0 mSec
    VTS_05 :
    Play Length: 00:00:01
    Video: PAL 4:3 (720x576) VBR
    Audio:
    Russian (Dolby AC3, 2 ch)
    Japanese (Dolby AC3, 2 ch)
    VTS_06 :
    Play Length: 00:02:00
    Video: PAL 16:9 (720x576) VBR, Auto Letterboxed
    Audio:
    Russian (Dolby AC3, 2 ch)
    VTS_07 :
    Play Length: 00:02:01
    Video: PAL 16:9 (720x576) VBR, Auto Letterboxed
    Audio:
    Russian (Dolby AC3, 2 ch)
    VTS_08 :
    Play Length: 00:02:10
    Video: PAL 16:9 (720x576) VBR, Auto Letterboxed
    Audio:
    Russian (Dolby AC3, 2 ch)
    VTS_09 :
    Play Length: 00:02:20
    Video: PAL 16:9 (720x576) VBR, Auto Letterboxed
    Audio:
    Russian (Dolby AC3, 2 ch)
    VTS_10 :
    Play Length: 00:01:54
    Video: PAL 16:9 (720x576) VBR, Auto Letterboxed
    Audio:
    Russian (Dolby AC3, 2 ch)
    VTS_11 :
    Play Length: 00:02:19
    Video: PAL 16:9 (720x576) VBR, Auto Letterboxed
    Audio:
    Russian (Dolby AC3, 2 ch)
    VTS_12 :
    Play Length: 00:02:18
    Video: PAL 16:9 (720x576) VBR, Auto Letterboxed
    Audio:
    Russian (Dolby AC3, 2 ch)
    VTS_13 :
    Play Length: 00:02:04
    Video: PAL 16:9 (720x576) VBR, Auto Letterboxed
    Audio:
    Russian (Dolby AC3, 2 ch)
    VTS_14 :
    Play Length: 00:01:43
    Video: PAL 16:9 (720x576) VBR, Auto Letterboxed
    Audio:
    Russian (Dolby AC3, 2 ch)
    VTS_15 :
    Play Length: 00:02:18
    Video: PAL 16:9 (720x576) VBR, Auto Letterboxed
    Audio:
    Russian (Dolby AC3, 2 ch)
    * Menus Information *
    VIDEO_TS Menu
    Video:
    PAL 4:3 (720x576) VBR
    Audio:
    Not specified (LinearPCM, 2 ch)
    English Language Unit :
    Title Menu
    VTS_01 Menu
    Video:
    PAL 4:3 (720x576) VBR
    Audio:
    Not specified (Dolby AC3, 2 ch)
    English Language Unit :
    Root Menu
    Chapter (PTT) Menu
    VTS_02 Menu
    Video:
    NTSC 4:3 (720x480) VBR
    Auto Pan&Scan, Auto Letterboxed
    English Language Unit :
    Root Menu
    Chapter (PTT) Menu
    VTS_03 Menu
    Video:
    NTSC 4:3 (720x480) VBR
    Auto Pan&Scan, Auto Letterboxed
    English Language Unit :
    Root Menu
    Chapter (PTT) Menu
    VTS_04 Menu
    Video:
    NTSC 4:3 (720x480) VBR
    Auto Pan&Scan, Auto Letterboxed
    English Language Unit :
    Root Menu
    Chapter (PTT) Menu
    VTS_05 Menu
    Video:
    NTSC 4:3 (720x480) VBR
    Auto Pan&Scan, Auto Letterboxed
    English Language Unit :
    Root Menu
    Chapter (PTT) Menu
    VTS_06 Menu
    Video:
    NTSC 4:3 (720x480) VBR
    Auto Pan&Scan, Auto Letterboxed
    English Language Unit :
    Root Menu
    Chapter (PTT) Menu
    VTS_07 Menu
    Video:
    NTSC 4:3 (720x480) VBR
    Auto Pan&Scan, Auto Letterboxed
    English Language Unit :
    Root Menu
    Chapter (PTT) Menu
    VTS_08 Menu
    Video:
    NTSC 4:3 (720x480) VBR
    Auto Pan&Scan, Auto Letterboxed
    English Language Unit :
    Root Menu
    Chapter (PTT) Menu
    VTS_09 Menu
    Video:
    NTSC 4:3 (720x480) VBR
    Auto Pan&Scan, Auto Letterboxed
    English Language Unit :
    Root Menu
    Chapter (PTT) Menu
    VTS_10 Menu
    Video:
    NTSC 4:3 (720x480) VBR
    Auto Pan&Scan, Auto Letterboxed
    English Language Unit :
    Root Menu
    Chapter (PTT) Menu
    VTS_11 Menu
    Video:
    NTSC 4:3 (720x480) VBR
    Auto Pan&Scan, Auto Letterboxed
    English Language Unit :
    Root Menu
    Chapter (PTT) Menu
    VTS_12 Menu
    Video:
    NTSC 4:3 (720x480) VBR
    Auto Pan&Scan, Auto Letterboxed
    English Language Unit :
    Root Menu
    Chapter (PTT) Menu
    VTS_13 Menu
    Video:
    NTSC 4:3 (720x480) VBR
    Auto Pan&Scan, Auto Letterboxed
    English Language Unit :
    Root Menu
    Chapter (PTT) Menu
    VTS_14 Menu
    Video:
    NTSC 4:3 (720x480) VBR
    Auto Pan&Scan, Auto Letterboxed
    English Language Unit :
    Root Menu
    Chapter (PTT) Menu
    VTS_15 Menu
    Video:
    NTSC 4:3 (720x480) VBR
    Auto Pan&Scan, Auto Letterboxed
    English Language Unit :
    Root Menu
    Chapter (PTT) Menu

    MediaInfo

    Общее
    Полное имя : I:\temp\Мексиканский вояж Степаныча (2012) DVD9\VIDEO_TS\VIDEO_TS.BUP
    Формат : DVD Video
    Профиль формата : Menu
    Размер файла : 28,0 Кбайт
    Режим общего битрейта : Переменный
    FileExtension_Invalid : ifo
    Видео
    Идентификатор : 224 (0xE0)
    Формат : MPEG Video
    Версия формата : Version 2
    Вид битрейта : Переменный
    Ширина : 720 пикселей
    Высота : 576 пикселей
    Соотношение сторон : 4:3
    Частота кадров : 25,000 кадров/сек
    Стандарт вещания : PAL
    Метод сжатия : С потерями
    Аудио
    Формат : PCM
    Каналы : 2 канала
    Частота : 48,0 КГц
    Текст
    Формат : RLE
    Формат/Информация : Run-length encoding
    Битовая глубина : 2 бит
    Общее
    Полное имя : I:\temp\Мексиканский вояж Степаныча (2012) DVD9\VIDEO_TS\VIDEO_TS.IFO
    Формат : DVD Video
    Профиль формата : Menu
    Размер файла : 28,0 Кбайт
    Режим общего битрейта : Переменный
    Видео
    Идентификатор : 224 (0xE0)
    Формат : MPEG Video
    Версия формата : Version 2
    Вид битрейта : Переменный
    Ширина : 720 пикселей
    Высота : 576 пикселей
    Соотношение сторон : 4:3
    Частота кадров : 25,000 кадров/сек
    Стандарт вещания : PAL
    Метод сжатия : С потерями
    Аудио
    Формат : PCM
    Каналы : 2 канала
    Частота : 48,0 КГц
    Текст
    Формат : RLE
    Формат/Информация : Run-length encoding
    Битовая глубина : 2 бит
    Общее
    Полное имя : I:\temp\Мексиканский вояж Степаныча (2012) DVD9\VIDEO_TS\VTS_01_0.BUP
    Формат : DVD Video
    Профиль формата : Program
    Размер файла : 26,0 Кбайт
    Продолжительность : 15 с. 680 мс.
    Режим общего битрейта : Переменный
    Общий поток : 13,6 Кбит/сек
    FileExtension_Invalid : ifo
    Видео
    Идентификатор : 224 (0xE0)
    Формат : MPEG Video
    Версия формата : Version 2
    Продолжительность : 15 с. 680 мс.
    Вид битрейта : Переменный
    Ширина : 720 пикселей
    Высота : 576 пикселей
    Соотношение сторон : 4:3
    Частота кадров : 25,000 кадров/сек
    Стандарт вещания : PAL
    Метод сжатия : С потерями
    Аудио
    Идентификатор : 128 (0x80)
    Формат : AC-3
    Формат/Информация : Audio Coding 3
    Продолжительность : 15 с. 680 мс.
    Каналы : 2 канала
    Частота : 48,0 КГц
    Метод сжатия : С потерями
    Меню
    Продолжительность : 15 с. 680 мс.
    00:00:00.000 : Chapter 1
    List (Audio) : 0
    Общее
    Полное имя : I:\temp\Мексиканский вояж Степаныча (2012) DVD9\VIDEO_TS\VTS_01_0.IFO
    Формат : DVD Video
    Профиль формата : Program
    Размер файла : 26,0 Кбайт
    Продолжительность : 15 с. 680 мс.
    Режим общего битрейта : Переменный
    Общий поток : 13,6 Кбит/сек
    Видео
    Идентификатор : 224 (0xE0)
    Формат : MPEG Video
    Версия формата : Version 2
    Продолжительность : 15 с. 680 мс.
    Вид битрейта : Переменный
    Ширина : 720 пикселей
    Высота : 576 пикселей
    Соотношение сторон : 4:3
    Частота кадров : 25,000 кадров/сек
    Стандарт вещания : PAL
    Метод сжатия : С потерями
    Аудио
    Идентификатор : 128 (0x80)
    Формат : AC-3
    Формат/Информация : Audio Coding 3
    Продолжительность : 15 с. 680 мс.
    Каналы : 2 канала
    Частота : 48,0 КГц
    Метод сжатия : С потерями
    Меню
    Продолжительность : 15 с. 680 мс.
    00:00:00.000 : Chapter 1
    List (Audio) : 0
    Общее
    Полное имя : I:\temp\Мексиканский вояж Степаныча (2012) DVD9\VIDEO_TS\VTS_01_0.VOB
    Формат : MPEG-PS
    Размер файла : 30,0 Мбайт
    Продолжительность : 30 с. 784 мс.
    Режим общего битрейта : Переменный
    Общий поток : 8168 Кбит/сек
    Видео
    Идентификатор : 224 (0xE0)
    Формат : MPEG Video
    Версия формата : Version 2
    Профиль формата : Main@Main
    Настройки формата : BVOP
    Параметр BVOP формата : Да
    Параметр матрицы формата : По умолчанию
    Параметр GOP формата : M=3, N=12
    Продолжительность : 520 мс.
    Вид битрейта : Переменный
    Битрейт : 7781 Кбит/сек
    Максимальный битрейт : 9500 Кбит/сек
    Ширина : 720 пикселей
    Высота : 576 пикселей
    Соотношение сторон : 4:3
    Частота кадров : 25,000 кадров/сек
    Стандарт вещания : PAL
    Цветовое пространство : YUV
    Субдискретизация насыщенности : 4:2:0
    Битовая глубина : 8 бит
    Тип развёртки : Прогрессивная
    Метод сжатия : С потерями
    Бит/(Пиксели*Кадры) : 0.750
    Временной код первого кадра : 00:00:00:00
    Оригинал временного кода : Group of pictures header
    GOP, открыто/закрыто : Закрыто
    Размер потока : 494 Кбайт (2%)
    Аудио
    Идентификатор : 189 (0xBD)-128 (0x80)
    Формат : AC-3
    Формат/Информация : Audio Coding 3
    Коммерческое название : Dolby Digital
    Режим смешивания : DVD-Video
    Продолжительность : 30 с. 784 мс.
    Вид битрейта : Постоянный
    Битрейт : 224 Кбит/сек
    Каналы : 2 канала
    Channel layout : L R
    Частота : 48,0 КГц
    Частота кадров : 31,250 кадров/сек (1536 SPF)
    Битовая глубина : 16 бит
    Метод сжатия : С потерями
    Размер потока : 842 Кбайт (3%)
    ServiceKind/String : Complete Main
    Текст
    Идентификатор : 189 (0xBD)-32 (0x20)
    Формат : RLE
    Формат/Информация : Run-length encoding
    Режим смешивания : DVD-Video
    Меню
    Общее
    Полное имя : I:\temp\Мексиканский вояж Степаныча (2012) DVD9\VIDEO_TS\VTS_01_1.VOB
    Формат : MPEG-PS
    Размер файла : 4,79 Мбайт
    Продолжительность : 15 с. 136 мс.
    Режим общего битрейта : Переменный
    Общий поток : 2656 Кбит/сек
    Видео
    Идентификатор : 224 (0xE0)
    Формат : MPEG Video
    Версия формата : Version 2
    Профиль формата : Main@Main
    Настройки формата : BVOP
    Параметр BVOP формата : Да
    Параметр матрицы формата : По умолчанию
    Параметр GOP формата : M=3, N=12
    Продолжительность : 15 с. 120 мс.
    Вид битрейта : Переменный
    Битрейт : 2411 Кбит/сек
    Максимальный битрейт : 8000 Кбит/сек
    Ширина : 720 пикселей
    Высота : 576 пикселей
    Соотношение сторон : 4:3
    Частота кадров : 25,000 кадров/сек
    Стандарт вещания : PAL
    Цветовое пространство : YUV
    Субдискретизация насыщенности : 4:2:0
    Битовая глубина : 8 бит
    Тип развёртки : Прогрессивная
    Метод сжатия : С потерями
    Бит/(Пиксели*Кадры) : 0.233
    Временной код первого кадра : 00:00:00:00
    Оригинал временного кода : Group of pictures header
    GOP, открыто/закрыто : Открыто
    GOP, открыто/закрыто на первом кадре : Закрыто
    Размер потока : 4,35 Мбайт (91%)
    Аудио
    Идентификатор : 189 (0xBD)-128 (0x80)
    Формат : AC-3
    Формат/Информация : Audio Coding 3
    Коммерческое название : Dolby Digital
    Режим смешивания : DVD-Video
    Продолжительность : 15 с. 136 мс.
    Вид битрейта : Постоянный
    Битрейт : 192 Кбит/сек
    Каналы : 2 канала
    Channel layout : L R
    Частота : 48,0 КГц
    Частота кадров : 31,250 кадров/сек (1536 SPF)
    Битовая глубина : 16 бит
    Метод сжатия : С потерями
    Размер потока : 355 Кбайт (7%)
    ServiceKind/String : Complete Main
    Меню
    Общее
    Полное имя : I:\temp\Мексиканский вояж Степаныча (2012) DVD9\VIDEO_TS\VTS_02_0.BUP
    Формат : DVD Video
    Профиль формата : Program
    Размер файла : 14,0 Кбайт
    Продолжительность : 8 с. 0 мс.
    Режим общего битрейта : Переменный
    Общий поток : 14,3 Кбит/сек
    FileExtension_Invalid : ifo
    Видео
    Идентификатор : 224 (0xE0)
    Формат : MPEG Video
    Версия формата : Version 2
    Продолжительность : 8 с. 0 мс.
    Вид битрейта : Переменный
    Ширина : 720 пикселей
    Высота : 576 пикселей
    Соотношение сторон : 4:3
    Частота кадров : 25,000 кадров/сек
    Стандарт вещания : PAL
    Метод сжатия : С потерями
    Аудио
    Идентификатор : 128 (0x80)
    Формат : AC-3
    Формат/Информация : Audio Coding 3
    Продолжительность : 8 с. 0 мс.
    Каналы : 2 канала
    Частота : 48,0 КГц
    Метод сжатия : С потерями
    Меню
    Продолжительность : 8 с. 0 мс.
    00:00:00.000 : Chapter 1
    List (Audio) : 0
    Общее
    Полное имя : I:\temp\Мексиканский вояж Степаныча (2012) DVD9\VIDEO_TS\VTS_02_0.IFO
    Формат : DVD Video
    Профиль формата : Program
    Размер файла : 14,0 Кбайт
    Продолжительность : 8 с. 0 мс.
    Режим общего битрейта : Переменный
    Общий поток : 14,3 Кбит/сек
    Видео
    Идентификатор : 224 (0xE0)
    Формат : MPEG Video
    Версия формата : Version 2
    Продолжительность : 8 с. 0 мс.
    Вид битрейта : Переменный
    Ширина : 720 пикселей
    Высота : 576 пикселей
    Соотношение сторон : 4:3
    Частота кадров : 25,000 кадров/сек
    Стандарт вещания : PAL
    Метод сжатия : С потерями
    Аудио
    Идентификатор : 128 (0x80)
    Формат : AC-3
    Формат/Информация : Audio Coding 3
    Продолжительность : 8 с. 0 мс.
    Каналы : 2 канала
    Частота : 48,0 КГц
    Метод сжатия : С потерями
    Меню
    Продолжительность : 8 с. 0 мс.
    00:00:00.000 : Chapter 1
    List (Audio) : 0
    Общее
    Полное имя : I:\temp\Мексиканский вояж Степаныча (2012) DVD9\VIDEO_TS\VTS_02_1.VOB
    Формат : MPEG-PS
    Размер файла : 3,66 Мбайт
    Продолжительность : 7 с. 584 мс.
    Режим общего битрейта : Переменный
    Общий поток : 4044 Кбит/сек
    Видео
    Идентификатор : 224 (0xE0)
    Формат : MPEG Video
    Версия формата : Version 2
    Профиль формата : Main@Main
    Настройки формата : BVOP
    Параметр BVOP формата : Да
    Параметр матрицы формата : По умолчанию
    Параметр GOP формата : M=3, N=12
    Продолжительность : 7 с. 560 мс.
    Вид битрейта : Переменный
    Битрейт : 3740 Кбит/сек
    Максимальный битрейт : 7500 Кбит/сек
    Ширина : 720 пикселей
    Высота : 576 пикселей
    Соотношение сторон : 4:3
    Частота кадров : 25,000 кадров/сек
    Стандарт вещания : PAL
    Цветовое пространство : YUV
    Субдискретизация насыщенности : 4:2:0
    Битовая глубина : 8 бит
    Тип развёртки : Прогрессивная
    Метод сжатия : С потерями
    Бит/(Пиксели*Кадры) : 0.361
    Временной код первого кадра : 00:00:00:00
    Оригинал временного кода : Group of pictures header
    GOP, открыто/закрыто : Открыто
    GOP, открыто/закрыто на первом кадре : Закрыто
    Размер потока : 3,37 Мбайт (92%)
    Аудио
    Идентификатор : 189 (0xBD)-128 (0x80)
    Формат : AC-3
    Формат/Информация : Audio Coding 3
    Коммерческое название : Dolby Digital
    Режим смешивания : DVD-Video
    Продолжительность : 7 с. 584 мс.
    Вид битрейта : Постоянный
    Битрейт : 224 Кбит/сек
    Каналы : 2 канала
    Channel layout : L R
    Частота : 48,0 КГц
    Частота кадров : 31,250 кадров/сек (1536 SPF)
    Битовая глубина : 16 бит
    Метод сжатия : С потерями
    Размер потока : 207 Кбайт (6%)
    ServiceKind/String : Complete Main
    Меню
    Общее
    Полное имя : I:\temp\Мексиканский вояж Степаныча (2012) DVD9\VIDEO_TS\VTS_03_0.BUP
    Формат : DVD Video
    Профиль формата : Program
    Размер файла : 14,0 Кбайт
    Продолжительность : 1 с. 760 мс.
    Режим общего битрейта : Переменный
    Общий поток : 65,2 Кбит/сек
    FileExtension_Invalid : ifo
    Видео
    Идентификатор : 224 (0xE0)
    Формат : MPEG Video
    Версия формата : Version 2
    Продолжительность : 1 с. 760 мс.
    Вид битрейта : Переменный
    Ширина : 720 пикселей
    Высота : 576 пикселей
    Соотношение сторон : 4:3
    Частота кадров : 25,000 кадров/сек
    Стандарт вещания : PAL
    Метод сжатия : С потерями
    Аудио #1
    Идентификатор : 128 (0x80)
    Формат : AC-3
    Формат/Информация : Audio Coding 3
    Продолжительность : 1 с. 760 мс.
    Каналы : 2 канала
    Частота : 48,0 КГц
    Метод сжатия : С потерями
    Язык : Russian
    Аудио #2
    Идентификатор : 129 (0x81)
    Формат : AC-3
    Формат/Информация : Audio Coding 3
    Продолжительность : 1 с. 760 мс.
    Каналы : 2 канала
    Частота : 48,0 КГц
    Метод сжатия : С потерями
    Язык : Japanese
    Меню
    Продолжительность : 1 с. 760 мс.
    00:00:00.000 : Chapter 1
    List (Audio) : 0 / 1
    Общее
    Полное имя : I:\temp\Мексиканский вояж Степаныча (2012) DVD9\VIDEO_TS\VTS_03_0.IFO
    Формат : DVD Video
    Профиль формата : Program
    Размер файла : 14,0 Кбайт
    Продолжительность : 1 с. 760 мс.
    Режим общего битрейта : Переменный
    Общий поток : 65,2 Кбит/сек
    Видео
    Идентификатор : 224 (0xE0)
    Формат : MPEG Video
    Версия формата : Version 2
    Продолжительность : 1 с. 760 мс.
    Вид битрейта : Переменный
    Ширина : 720 пикселей
    Высота : 576 пикселей
    Соотношение сторон : 4:3
    Частота кадров : 25,000 кадров/сек
    Стандарт вещания : PAL
    Метод сжатия : С потерями
    Аудио #1
    Идентификатор : 128 (0x80)
    Формат : AC-3
    Формат/Информация : Audio Coding 3
    Продолжительность : 1 с. 760 мс.
    Каналы : 2 канала
    Частота : 48,0 КГц
    Метод сжатия : С потерями
    Язык : Russian
    Аудио #2
    Идентификатор : 129 (0x81)
    Формат : AC-3
    Формат/Информация : Audio Coding 3
    Продолжительность : 1 с. 760 мс.
    Каналы : 2 канала
    Частота : 48,0 КГц
    Метод сжатия : С потерями
    Язык : Japanese
    Меню
    Продолжительность : 1 с. 760 мс.
    00:00:00.000 : Chapter 1
    List (Audio) : 0 / 1
    Общее
    Полное имя : I:\temp\Мексиканский вояж Степаныча (2012) DVD9\VIDEO_TS\VTS_03_1.VOB
    Формат : MPEG-PS
    Размер файла : 96,0 Кбайт
    Продолжительность : 1 с. 24 мс.
    Режим общего битрейта : Переменный
    Общий поток : 768 Кбит/сек
    Видео
    Идентификатор : 224 (0xE0)
    Формат : MPEG Video
    Версия формата : Version 2
    Профиль формата : Main@Main
    Настройки формата : BVOP
    Параметр BVOP формата : Да
    Параметр матрицы формата : По умолчанию
    Продолжительность : 1 с. 0 мс.
    Вид битрейта : Переменный
    Битрейт : 369 Кбит/сек
    Максимальный битрейт : 7200 Кбит/сек
    Ширина : 720 пикселей
    Высота : 576 пикселей
    Соотношение сторон : 16:9
    Частота кадров : 25,000 кадров/сек
    Стандарт вещания : PAL
    Цветовое пространство : YUV
    Субдискретизация насыщенности : 4:2:0
    Битовая глубина : 8 бит
    Тип развёртки : Прогрессивная
    Метод сжатия : С потерями
    Бит/(Пиксели*Кадры) : 0.036
    Временной код первого кадра : 00:00:00:00
    Оригинал временного кода : Group of pictures header
    Размер потока : 45,0 Кбайт (47%)
    Аудио #1
    Идентификатор : 189 (0xBD)-128 (0x80)
    Формат : AC-3
    Формат/Информация : Audio Coding 3
    Коммерческое название : Dolby Digital
    Режим смешивания : DVD-Video
    Продолжительность : 1 с. 24 мс.
    Вид битрейта : Постоянный
    Битрейт : 192 Кбит/сек
    Каналы : 2 канала
    Channel layout : L R
    Частота : 48,0 КГц
    Частота кадров : 31,250 кадров/сек (1536 SPF)
    Битовая глубина : 16 бит
    Метод сжатия : С потерями
    Размер потока : 24,0 Кбайт (25%)
    ServiceKind/String : Complete Main
    Аудио #2
    Идентификатор : 189 (0xBD)-129 (0x81)
    Формат : AC-3
    Формат/Информация : Audio Coding 3
    Коммерческое название : Dolby Digital
    Режим смешивания : DVD-Video
    Продолжительность : 1 с. 24 мс.
    Вид битрейта : Постоянный
    Битрейт : 192 Кбит/сек
    Каналы : 2 канала
    Channel layout : L R
    Частота : 48,0 КГц
    Частота кадров : 31,250 кадров/сек (1536 SPF)
    Битовая глубина : 16 бит
    Метод сжатия : С потерями
    Размер потока : 24,0 Кбайт (25%)
    ServiceKind/String : Complete Main
    Меню
    Общее
    Полное имя : I:\temp\Мексиканский вояж Степаныча (2012) DVD9\VIDEO_TS\VTS_04_0.BUP
    Формат : DVD Video
    Профиль формата : Program
    Размер файла : 62,0 Кбайт
    Продолжительность : 1 ч. 24 м.
    Режим общего битрейта : Переменный
    Общий поток : 100 бит/сек
    FileExtension_Invalid : ifo
    Видео
    Идентификатор : 224 (0xE0)
    Формат : MPEG Video
    Версия формата : Version 2
    Продолжительность : 1 ч. 24 м.
    Вид битрейта : Переменный
    Ширина : 720 пикселей
    Высота : 576 пикселей
    Соотношение сторон : 4:3
    Частота кадров : 25,000 кадров/сек
    Стандарт вещания : PAL
    Метод сжатия : С потерями
    Аудио
    Идентификатор : 128 (0x80)
    Формат : AC-3
    Формат/Информация : Audio Coding 3
    Продолжительность : 1 ч. 24 м.
    Каналы : 2 канала
    Частота : 48,0 КГц
    Метод сжатия : С потерями
    Язык : Russian
    Меню
    Продолжительность : 1 ч. 24 м.
    00:00:00.000 : Chapter 1
    00:00:33.520 : Chapter 2
    00:14:31.120 : Chapter 3
    00:26:49.360 : Chapter 4
    00:38:50.800 : Chapter 5
    00:52:32.560 : Chapter 6
    01:07:19.120 : Chapter 7
    List (Audio) : 0
    Общее
    Полное имя : I:\temp\Мексиканский вояж Степаныча (2012) DVD9\VIDEO_TS\VTS_04_0.IFO
    Формат : DVD Video
    Профиль формата : Program
    Размер файла : 62,0 Кбайт
    Продолжительность : 1 ч. 24 м.
    Режим общего битрейта : Переменный
    Общий поток : 100 бит/сек
    Видео
    Идентификатор : 224 (0xE0)
    Формат : MPEG Video
    Версия формата : Version 2
    Продолжительность : 1 ч. 24 м.
    Вид битрейта : Переменный
    Ширина : 720 пикселей
    Высота : 576 пикселей
    Соотношение сторон : 4:3
    Частота кадров : 25,000 кадров/сек
    Стандарт вещания : PAL
    Метод сжатия : С потерями
    Аудио
    Идентификатор : 128 (0x80)
    Формат : AC-3
    Формат/Информация : Audio Coding 3
    Продолжительность : 1 ч. 24 м.
    Каналы : 2 канала
    Частота : 48,0 КГц
    Метод сжатия : С потерями
    Язык : Russian
    Меню
    Продолжительность : 1 ч. 24 м.
    00:00:00.000 : Chapter 1
    00:00:33.520 : Chapter 2
    00:14:31.120 : Chapter 3
    00:26:49.360 : Chapter 4
    00:38:50.800 : Chapter 5
    00:52:32.560 : Chapter 6
    01:07:19.120 : Chapter 7
    List (Audio) : 0
    Общее
    Полное имя : I:\temp\Мексиканский вояж Степаныча (2012) DVD9\VIDEO_TS\VTS_04_1.VOB
    Формат : MPEG-PS
    Размер файла : 1024 Мбайт
    Продолжительность : 19 м. 7 с.
    Режим общего битрейта : Переменный
    Общий поток : 7484 Кбит/сек
    Видео
    Идентификатор : 224 (0xE0)
    Формат : MPEG Video
    Версия формата : Version 2
    Профиль формата : Main@Main
    Настройки формата : BVOP
    Параметр BVOP формата : Да
    Параметр матрицы формата : По умолчанию
    Параметр GOP формата : M=3, N=12
    Продолжительность : 19 м. 7 с.
    Вид битрейта : Переменный
    Битрейт : 7111 Кбит/сек
    Максимальный битрейт : 8500 Кбит/сек
    Ширина : 720 пикселей
    Высота : 576 пикселей
    Соотношение сторон : 4:3
    Частота кадров : 25,000 кадров/сек
    Стандарт вещания : PAL
    Цветовое пространство : YUV
    Субдискретизация насыщенности : 4:2:0
    Битовая глубина : 8 бит
    Тип развёртки : Прогрессивная
    Метод сжатия : С потерями
    Бит/(Пиксели*Кадры) : 0.686
    Временной код первого кадра : 00:00:00:00
    Оригинал временного кода : Group of pictures header
    GOP, открыто/закрыто : Открыто
    GOP, открыто/закрыто на первом кадре : Закрыто
    Размер потока : 973 Мбайт (95%)
    Аудио
    Идентификатор : 189 (0xBD)-128 (0x80)
    Формат : AC-3
    Формат/Информация : Audio Coding 3
    Коммерческое название : Dolby Digital
    Режим смешивания : DVD-Video
    Продолжительность : 19 м. 7 с.
    Вид битрейта : Постоянный
    Битрейт : 224 Кбит/сек
    Каналы : 2 канала
    Channel layout : L R
    Частота : 48,0 КГц
    Частота кадров : 31,250 кадров/сек (1536 SPF)
    Битовая глубина : 16 бит
    Метод сжатия : С потерями
    Размер потока : 30,6 Мбайт (3%)
    ServiceKind/String : Complete Main
    Меню
    Общее
    Полное имя : I:\temp\Мексиканский вояж Степаныча (2012) DVD9\VIDEO_TS\VTS_04_2.VOB
    Формат : MPEG-PS
    Размер файла : 1024 Мбайт
    Продолжительность : 18 м. 38 с.
    Режим общего битрейта : Переменный
    Общий поток : 7679 Кбит/сек
    Видео
    Идентификатор : 224 (0xE0)
    Формат : MPEG Video
    Версия формата : Version 2
    Профиль формата : Main@Main
    Настройки формата : BVOP
    Параметр BVOP формата : Да
    Параметр матрицы формата : По умолчанию
    Параметр GOP формата : M=3, N=12
    Продолжительность : 18 м. 38 с.
    Вид битрейта : Переменный
    Битрейт : 7302 Кбит/сек
    Максимальный битрейт : 8500 Кбит/сек
    Ширина : 720 пикселей
    Высота : 576 пикселей
    Соотношение сторон : 4:3
    Частота кадров : 25,000 кадров/сек
    Стандарт вещания : PAL
    Цветовое пространство : YUV
    Субдискретизация насыщенности : 4:2:0
    Битовая глубина : 8 бит
    Тип развёртки : Прогрессивная
    Метод сжатия : С потерями
    Бит/(Пиксели*Кадры) : 0.704
    Временной код первого кадра : 00:19:08:02
    Оригинал временного кода : Group of pictures header
    GOP, открыто/закрыто : Открыто
    Размер потока : 974 Мбайт (95%)
    Аудио
    Идентификатор : 189 (0xBD)-128 (0x80)
    Формат : AC-3
    Формат/Информация : Audio Coding 3
    Коммерческое название : Dolby Digital
    Режим смешивания : DVD-Video
    Продолжительность : 18 м. 38 с.
    Вид битрейта : Постоянный
    Битрейт : 224 Кбит/сек
    Каналы : 2 канала
    Channel layout : L R
    Частота : 48,0 КГц
    Частота кадров : 31,250 кадров/сек (1536 SPF)
    Битовая глубина : 16 бит
    Метод сжатия : С потерями
    Задержка видео : -544 мс.
    Размер потока : 29,9 Мбайт (3%)
    ServiceKind/String : Complete Main
    Меню
    Общее
    Полное имя : I:\temp\Мексиканский вояж Степаныча (2012) DVD9\VIDEO_TS\VTS_04_3.VOB
    Формат : MPEG-PS
    Размер файла : 1024 Мбайт
    Продолжительность : 18 м. 36 с.
    Режим общего битрейта : Переменный
    Общий поток : 7694 Кбит/сек
    Видео
    Идентификатор : 224 (0xE0)
    Формат : MPEG Video
    Версия формата : Version 2
    Профиль формата : Main@Main
    Настройки формата : BVOP
    Параметр BVOP формата : Да
    Параметр матрицы формата : По умолчанию
    Параметр GOP формата : M=3, N=12
    Продолжительность : 18 м. 35 с.
    Вид битрейта : Переменный
    Битрейт : 7317 Кбит/сек
    Максимальный битрейт : 8500 Кбит/сек
    Ширина : 720 пикселей
    Высота : 576 пикселей
    Соотношение сторон : 4:3
    Частота кадров : 25,000 кадров/сек
    Стандарт вещания : PAL
    Цветовое пространство : YUV
    Субдискретизация насыщенности : 4:2:0
    Битовая глубина : 8 бит
    Тип развёртки : Прогрессивная
    Метод сжатия : С потерями
    Бит/(Пиксели*Кадры) : 0.706
    Временной код первого кадра : 00:37:46:24
    Оригинал временного кода : Group of pictures header
    GOP, открыто/закрыто : Открыто
    Размер потока : 973 Мбайт (95%)
    Аудио
    Идентификатор : 189 (0xBD)-128 (0x80)
    Формат : AC-3
    Формат/Информация : Audio Coding 3
    Коммерческое название : Dolby Digital
    Режим смешивания : DVD-Video
    Продолжительность : 18 м. 36 с.
    Вид битрейта : Постоянный
    Битрейт : 224 Кбит/сек
    Каналы : 2 канала
    Channel layout : L R
    Частота : 48,0 КГц
    Частота кадров : 31,250 кадров/сек (1536 SPF)
    Битовая глубина : 16 бит
    Метод сжатия : С потерями
    Задержка видео : -768 мс.
    Размер потока : 29,8 Мбайт (3%)
    ServiceKind/String : Complete Main
    Меню
    Общее
    Полное имя : I:\temp\Мексиканский вояж Степаныча (2012) DVD9\VIDEO_TS\VTS_04_4.VOB
    Формат : MPEG-PS
    Размер файла : 1024 Мбайт
    Продолжительность : 19 м. 7 с.
    Режим общего битрейта : Переменный
    Общий поток : 7483 Кбит/сек
    Видео
    Идентификатор : 224 (0xE0)
    Формат : MPEG Video
    Версия формата : Version 2
    Профиль формата : Main@Main
    Настройки формата : BVOP
    Параметр BVOP формата : Да
    Параметр матрицы формата : По умолчанию
    Параметр GOP формата : M=3, N=12
    Продолжительность : 19 м. 7 с.
    Вид битрейта : Переменный
    Битрейт : 7110 Кбит/сек
    Максимальный битрейт : 8500 Кбит/сек
    Ширина : 720 пикселей
    Высота : 576 пикселей
    Соотношение сторон : 4:3
    Частота кадров : 25,000 кадров/сек
    Стандарт вещания : PAL
    Цветовое пространство : YUV
    Субдискретизация насыщенности : 4:2:0
    Битовая глубина : 8 бит
    Тип развёртки : Прогрессивная
    Метод сжатия : С потерями
    Бит/(Пиксели*Кадры) : 0.686
    Временной код первого кадра : 00:56:22:24
    Оригинал временного кода : Group of pictures header
    GOP, открыто/закрыто : Открыто
    Размер потока : 973 Мбайт (95%)
    Аудио
    Идентификатор : 189 (0xBD)-128 (0x80)
    Формат : AC-3
    Формат/Информация : Audio Coding 3
    Коммерческое название : Dolby Digital
    Режим смешивания : DVD-Video
    Продолжительность : 19 м. 7 с.
    Вид битрейта : Постоянный
    Битрейт : 224 Кбит/сек
    Каналы : 2 канала
    Channel layout : L R
    Частота : 48,0 КГц
    Частота кадров : 31,250 кадров/сек (1536 SPF)
    Битовая глубина : 16 бит
    Метод сжатия : С потерями
    Задержка видео : -320 мс.
    Размер потока : 30,7 Мбайт (3%)
    ServiceKind/String : Complete Main
    Меню
    Общее
    Полное имя : I:\temp\Мексиканский вояж Степаныча (2012) DVD9\VIDEO_TS\VTS_04_5.VOB
    Формат : MPEG-PS
    Размер файла : 429 Мбайт
    Продолжительность : 8 м. 47 с.
    Режим общего битрейта : Переменный
    Общий поток : 6817 Кбит/сек
    Видео
    Идентификатор : 224 (0xE0)
    Формат : MPEG Video
    Версия формата : Version 2
    Профиль формата : Main@Main
    Настройки формата : BVOP
    Параметр BVOP формата : Да
    Параметр матрицы формата : По умолчанию
    Параметр GOP формата : M=3, N=12
    Продолжительность : 8 м. 46 с.
    Вид битрейта : Переменный
    Битрейт : 6458 Кбит/сек
    Максимальный битрейт : 8500 Кбит/сек
    Ширина : 720 пикселей
    Высота : 576 пикселей
    Соотношение сторон : 4:3
    Частота кадров : 25,000 кадров/сек
    Стандарт вещания : PAL
    Цветовое пространство : YUV
    Субдискретизация насыщенности : 4:2:0
    Битовая глубина : 8 бит
    Тип развёртки : Прогрессивная
    Метод сжатия : С потерями
    Бит/(Пиксели*Кадры) : 0.623
    Временной код первого кадра : 01:15:31:03
    Оригинал временного кода : Group of pictures header
    GOP, открыто/закрыто : Открыто
    Размер потока : 406 Мбайт (95%)
    Аудио
    Идентификатор : 189 (0xBD)-128 (0x80)
    Формат : AC-3
    Формат/Информация : Audio Coding 3
    Коммерческое название : Dolby Digital
    Режим смешивания : DVD-Video
    Продолжительность : 8 м. 47 с.
    Вид битрейта : Постоянный
    Битрейт : 224 Кбит/сек
    Каналы : 2 канала
    Channel layout : L R
    Частота : 48,0 КГц
    Частота кадров : 31,250 кадров/сек (1536 SPF)
    Битовая глубина : 16 бит
    Метод сжатия : С потерями
    Задержка видео : -512 мс.
    Размер потока : 14,1 Мбайт (3%)
    ServiceKind/String : Complete Main
    Меню
    Общее
    Полное имя : I:\temp\Мексиканский вояж Степаныча (2012) DVD9\VIDEO_TS\VTS_05_0.BUP
    Формат : DVD Video
    Профиль формата : Program
    Размер файла : 14,0 Кбайт
    Продолжительность : 1 с. 760 мс.
    Режим общего битрейта : Переменный
    Общий поток : 65,2 Кбит/сек
    FileExtension_Invalid : ifo
    Видео
    Идентификатор : 224 (0xE0)
    Формат : MPEG Video
    Версия формата : Version 2
    Продолжительность : 1 с. 760 мс.
    Вид битрейта : Переменный
    Ширина : 720 пикселей
    Высота : 576 пикселей
    Соотношение сторон : 4:3
    Частота кадров : 25,000 кадров/сек
    Стандарт вещания : PAL
    Метод сжатия : С потерями
    Аудио #1
    Идентификатор : 128 (0x80)
    Формат : AC-3
    Формат/Информация : Audio Coding 3
    Продолжительность : 1 с. 760 мс.
    Каналы : 2 канала
    Частота : 48,0 КГц
    Метод сжатия : С потерями
    Язык : Russian
    Аудио #2
    Идентификатор : 129 (0x81)
    Формат : AC-3
    Формат/Информация : Audio Coding 3
    Продолжительность : 1 с. 760 мс.
    Каналы : 2 канала
    Частота : 48,0 КГц
    Метод сжатия : С потерями
    Язык : Japanese
    Меню
    Продолжительность : 1 с. 760 мс.
    00:00:00.000 : Chapter 1
    List (Audio) : 0 / 1
    Общее
    Полное имя : I:\temp\Мексиканский вояж Степаныча (2012) DVD9\VIDEO_TS\VTS_05_0.IFO
    Формат : DVD Video
    Профиль формата : Program
    Размер файла : 14,0 Кбайт
    Продолжительность : 1 с. 760 мс.
    Режим общего битрейта : Переменный
    Общий поток : 65,2 Кбит/сек
    Видео
    Идентификатор : 224 (0xE0)
    Формат : MPEG Video
    Версия формата : Version 2
    Продолжительность : 1 с. 760 мс.
    Вид битрейта : Переменный
    Ширина : 720 пикселей
    Высота : 576 пикселей
    Соотношение сторон : 4:3
    Частота кадров : 25,000 кадров/сек
    Стандарт вещания : PAL
    Метод сжатия : С потерями
    Аудио #1
    Идентификатор : 128 (0x80)
    Формат : AC-3
    Формат/Информация : Audio Coding 3
    Продолжительность : 1 с. 760 мс.
    Каналы : 2 канала
    Частота : 48,0 КГц
    Метод сжатия : С потерями
    Язык : Russian
    Аудио #2
    Идентификатор : 129 (0x81)
    Формат : AC-3
    Формат/Информация : Audio Coding 3
    Продолжительность : 1 с. 760 мс.
    Каналы : 2 канала
    Частота : 48,0 КГц
    Метод сжатия : С потерями
    Язык : Japanese
    Меню
    Продолжительность : 1 с. 760 мс.
    00:00:00.000 : Chapter 1
    List (Audio) : 0 / 1
    Общее
    Полное имя : I:\temp\Мексиканский вояж Степаныча (2012) DVD9\VIDEO_TS\VTS_05_1.VOB
    Формат : MPEG-PS
    Размер файла : 96,0 Кбайт
    Продолжительность : 1 с. 24 мс.
    Режим общего битрейта : Переменный
    Общий поток : 768 Кбит/сек
    Видео
    Идентификатор : 224 (0xE0)
    Формат : MPEG Video
    Версия формата : Version 2
    Профиль формата : Main@Main
    Настройки формата : BVOP
    Параметр BVOP формата : Да
    Параметр матрицы формата : По умолчанию
    Продолжительность : 1 с. 0 мс.
    Вид битрейта : Переменный
    Битрейт : 369 Кбит/сек
    Максимальный битрейт : 7200 Кбит/сек
    Ширина : 720 пикселей
    Высота : 576 пикселей
    Соотношение сторон : 16:9
    Частота кадров : 25,000 кадров/сек
    Стандарт вещания : PAL
    Цветовое пространство : YUV
    Субдискретизация насыщенности : 4:2:0
    Битовая глубина : 8 бит
    Тип развёртки : Прогрессивная
    Метод сжатия : С потерями
    Бит/(Пиксели*Кадры) : 0.036
    Временной код первого кадра : 00:00:00:00
    Оригинал временного кода : Group of pictures header
    Размер потока : 45,0 Кбайт (47%)
    Аудио #1
    Идентификатор : 189 (0xBD)-128 (0x80)
    Формат : AC-3
    Формат/Информация : Audio Coding 3
    Коммерческое название : Dolby Digital
    Режим смешивания : DVD-Video
    Продолжительность : 1 с. 24 мс.
    Вид битрейта : Постоянный
    Битрейт : 192 Кбит/сек
    Каналы : 2 канала
    Channel layout : L R
    Частота : 48,0 КГц
    Частота кадров : 31,250 кадров/сек (1536 SPF)
    Битовая глубина : 16 бит
    Метод сжатия : С потерями
    Размер потока : 24,0 Кбайт (25%)
    ServiceKind/String : Complete Main
    Аудио #2
    Идентификатор : 189 (0xBD)-129 (0x81)
    Формат : AC-3
    Формат/Информация : Audio Coding 3
    Коммерческое название : Dolby Digital
    Режим смешивания : DVD-Video
    Продолжительность : 1 с. 24 мс.
    Вид битрейта : Постоянный
    Битрейт : 192 Кбит/сек
    Каналы : 2 канала
    Channel layout : L R
    Частота : 48,0 КГц
    Частота кадров : 31,250 кадров/сек (1536 SPF)
    Битовая глубина : 16 бит
    Метод сжатия : С потерями
    Размер потока : 24,0 Кбайт (25%)
    ServiceKind/String : Complete Main
    Меню
    Общее
    Полное имя : I:\temp\Мексиканский вояж Степаныча (2012) DVD9\VIDEO_TS\VTS_06_0.BUP
    Формат : DVD Video
    Профиль формата : Program
    Размер файла : 14,0 Кбайт
    Продолжительность : 2 м. 0 с.
    Режим общего битрейта : Переменный
    Общий поток : 953 бит/сек
    FileExtension_Invalid : ifo
    Видео
    Идентификатор : 224 (0xE0)
    Формат : MPEG Video
    Версия формата : Version 2
    Продолжительность : 2 м. 0 с.
    Вид битрейта : Переменный
    Ширина : 720 пикселей
    Высота : 576 пикселей
    Соотношение сторон : 16:9
    Частота кадров : 25,000 кадров/сек
    Стандарт вещания : PAL
    Метод сжатия : С потерями
    Аудио
    Идентификатор : 128 (0x80)
    Формат : AC-3
    Формат/Информация : Audio Coding 3
    Продолжительность : 2 м. 0 с.
    Каналы : 2 канала
    Частота : 48,0 КГц
    Метод сжатия : С потерями
    Язык : Russian
    Меню
    Продолжительность : 2 м. 0 с.
    00:00:00.000 : Chapter 1
    List (Audio) : 0
    Общее
    Полное имя : I:\temp\Мексиканский вояж Степаныча (2012) DVD9\VIDEO_TS\VTS_06_0.IFO
    Формат : DVD Video
    Профиль формата : Program
    Размер файла : 14,0 Кбайт
    Продолжительность : 2 м. 0 с.
    Режим общего битрейта : Переменный
    Общий поток : 953 бит/сек
    Видео
    Идентификатор : 224 (0xE0)
    Формат : MPEG Video
    Версия формата : Version 2
    Продолжительность : 2 м. 0 с.
    Вид битрейта : Переменный
    Ширина : 720 пикселей
    Высота : 576 пикселей
    Соотношение сторон : 16:9
    Частота кадров : 25,000 кадров/сек
    Стандарт вещания : PAL
    Метод сжатия : С потерями
    Аудио
    Идентификатор : 128 (0x80)
    Формат : AC-3
    Формат/Информация : Audio Coding 3
    Продолжительность : 2 м. 0 с.
    Каналы : 2 канала
    Частота : 48,0 КГц
    Метод сжатия : С потерями
    Язык : Russian
    Меню
    Продолжительность : 2 м. 0 с.
    00:00:00.000 : Chapter 1
    List (Audio) : 0
    Общее
    Полное имя : I:\temp\Мексиканский вояж Степаныча (2012) DVD9\VIDEO_TS\VTS_06_1.VOB
    Формат : MPEG-PS
    Размер файла : 96,6 Мбайт
    Продолжительность : 1 м. 59 с.
    Режим общего битрейта : Переменный
    Общий поток : 6769 Кбит/сек
    Видео
    Идентификатор : 224 (0xE0)
    Формат : MPEG Video
    Версия формата : Version 2
    Профиль формата : Main@Main
    Настройки формата : BVOP
    Параметр BVOP формата : Да
    Параметр матрицы формата : По умолчанию
    Параметр GOP формата : M=3, N=12
    Продолжительность : 1 м. 59 с.
    Вид битрейта : Переменный
    Битрейт : 6410 Кбит/сек
    Максимальный битрейт : 7800 Кбит/сек
    Ширина : 720 пикселей
    Высота : 576 пикселей
    Соотношение сторон : 16:9
    Частота кадров : 25,000 кадров/сек
    Стандарт вещания : PAL
    Цветовое пространство : YUV
    Субдискретизация насыщенности : 4:2:0
    Битовая глубина : 8 бит
    Тип развёртки : Прогрессивная
    Метод сжатия : С потерями
    Бит/(Пиксели*Кадры) : 0.618
    Временной код первого кадра : 00:00:00:00
    Оригинал временного кода : Group of pictures header
    GOP, открыто/закрыто : Открыто
    GOP, открыто/закрыто на первом кадре : Закрыто
    Размер потока : 91,5 Мбайт (95%)
    Аудио
    Идентификатор : 189 (0xBD)-128 (0x80)
    Формат : AC-3
    Формат/Информация : Audio Coding 3
    Коммерческое название : Dolby Digital
    Режим смешивания : DVD-Video
    Продолжительность : 1 м. 59 с.
    Вид битрейта : Постоянный
    Битрейт : 224 Кбит/сек
    Каналы : 2 канала
    Channel layout : L R
    Частота : 48,0 КГц
    Частота кадров : 31,250 кадров/сек (1536 SPF)
    Битовая глубина : 16 бит
    Метод сжатия : С потерями
    Размер потока : 3,20 Мбайт (3%)
    ServiceKind/String : Complete Main
    Меню
    Общее
    Полное имя : I:\temp\Мексиканский вояж Степаныча (2012) DVD9\VIDEO_TS\VTS_07_0.BUP
    Формат : DVD Video
    Профиль формата : Program
    Размер файла : 14,0 Кбайт
    Продолжительность : 2 м. 1 с.
    Режим общего битрейта : Переменный
    Общий поток : 942 бит/сек
    FileExtension_Invalid : ifo
    Видео
    Идентификатор : 224 (0xE0)
    Формат : MPEG Video
    Версия формата : Version 2
    Продолжительность : 2 м. 1 с.
    Вид битрейта : Переменный
    Ширина : 720 пикселей
    Высота : 576 пикселей
    Соотношение сторон : 16:9
    Частота кадров : 25,000 кадров/сек
    Стандарт вещания : PAL
    Метод сжатия : С потерями
    Аудио
    Идентификатор : 128 (0x80)
    Формат : AC-3
    Формат/Информация : Audio Coding 3
    Продолжительность : 2 м. 1 с.
    Каналы : 2 канала
    Частота : 48,0 КГц
    Метод сжатия : С потерями
    Язык : Russian
    Меню
    Продолжительность : 2 м. 1 с.
    00:00:00.000 : Chapter 1
    List (Audio) : 0
    Общее
    Полное имя : I:\temp\Мексиканский вояж Степаныча (2012) DVD9\VIDEO_TS\VTS_07_0.IFO
    Формат : DVD Video
    Профиль формата : Program
    Размер файла : 14,0 Кбайт
    Продолжительность : 2 м. 1 с.
    Режим общего битрейта : Переменный
    Общий поток : 942 бит/сек
    Видео
    Идентификатор : 224 (0xE0)
    Формат : MPEG Video
    Версия формата : Version 2
    Продолжительность : 2 м. 1 с.
    Вид битрейта : Переменный
    Ширина : 720 пикселей
    Высота : 576 пикселей
    Соотношение сторон : 16:9
    Частота кадров : 25,000 кадров/сек
    Стандарт вещания : PAL
    Метод сжатия : С потерями
    Аудио
    Идентификатор : 128 (0x80)
    Формат : AC-3
    Формат/Информация : Audio Coding 3
    Продолжительность : 2 м. 1 с.
    Каналы : 2 канала
    Частота : 48,0 КГц
    Метод сжатия : С потерями
    Язык : Russian
    Меню
    Продолжительность : 2 м. 1 с.
    00:00:00.000 : Chapter 1
    List (Audio) : 0
    Общее
    Полное имя : I:\temp\Мексиканский вояж Степаныча (2012) DVD9\VIDEO_TS\VTS_07_1.VOB
    Формат : MPEG-PS
    Размер файла : 83,8 Мбайт
    Продолжительность : 2 м. 1 с.
    Режим общего битрейта : Переменный
    Общий поток : 5792 Кбит/сек
    Видео
    Идентификатор : 224 (0xE0)
    Формат : MPEG Video
    Версия формата : Version 2
    Профиль формата : Main@Main
    Настройки формата : BVOP
    Параметр BVOP формата : Да
    Параметр матрицы формата : По умолчанию
    Параметр GOP формата : M=3, N=12
    Продолжительность : 2 м. 1 с.
    Вид битрейта : Переменный
    Битрейт : 5453 Кбит/сек
    Максимальный битрейт : 7800 Кбит/сек
    Ширина : 720 пикселей
    Высота : 576 пикселей
    Соотношение сторон : 16:9
    Частота кадров : 25,000 кадров/сек
    Стандарт вещания : PAL
    Цветовое пространство : YUV
    Субдискретизация насыщенности : 4:2:0
    Битовая глубина : 8 бит
    Тип развёртки : Прогрессивная
    Метод сжатия : С потерями
    Бит/(Пиксели*Кадры) : 0.526
    Временной код первого кадра : 00:00:00:00
    Оригинал временного кода : Group of pictures header
    GOP, открыто/закрыто : Открыто
    GOP, открыто/закрыто на первом кадре : Закрыто
    Размер потока : 78,9 Мбайт (94%)
    Аудио
    Идентификатор : 189 (0xBD)-128 (0x80)
    Формат : AC-3
    Формат/Информация : Audio Coding 3
    Коммерческое название : Dolby Digital
    Режим смешивания : DVD-Video
    Продолжительность : 2 м. 1 с.
    Вид битрейта : Постоянный
    Битрейт : 224 Кбит/сек
    Каналы : 2 канала
    Channel layout : L R
    Частота : 48,0 КГц
    Частота кадров : 31,250 кадров/сек (1536 SPF)
    Битовая глубина : 16 бит
    Метод сжатия : С потерями
    Размер потока : 3,24 Мбайт (4%)
    ServiceKind/String : Complete Main
    Меню
    Общее
    Полное имя : I:\temp\Мексиканский вояж Степаныча (2012) DVD9\VIDEO_TS\VTS_08_0.BUP
    Формат : DVD Video
    Профиль формата : Program
    Размер файла : 14,0 Кбайт
    Продолжительность : 2 м. 10 с.
    Режим общего битрейта : Переменный
    Общий поток : 880 бит/сек
    FileExtension_Invalid : ifo
    Видео
    Идентификатор : 224 (0xE0)
    Формат : MPEG Video
    Версия формата : Version 2
    Продолжительность : 2 м. 10 с.
    Вид битрейта : Переменный
    Ширина : 720 пикселей
    Высота : 576 пикселей
    Соотношение сторон : 16:9
    Частота кадров : 25,000 кадров/сек
    Стандарт вещания : PAL
    Метод сжатия : С потерями
    Аудио
    Идентификатор : 128 (0x80)
    Формат : AC-3
    Формат/Информация : Audio Coding 3
    Продолжительность : 2 м. 10 с.
    Каналы : 2 канала
    Частота : 48,0 КГц
    Метод сжатия : С потерями
    Язык : Russian
    Меню
    Продолжительность : 2 м. 10 с.
    00:00:00.000 : Chapter 1
    List (Audio) : 0
    Общее
    Полное имя : I:\temp\Мексиканский вояж Степаныча (2012) DVD9\VIDEO_TS\VTS_08_0.IFO
    Формат : DVD Video
    Профиль формата : Program
    Размер файла : 14,0 Кбайт
    Продолжительность : 2 м. 10 с.
    Режим общего битрейта : Переменный
    Общий поток : 880 бит/сек
    Видео
    Идентификатор : 224 (0xE0)
    Формат : MPEG Video
    Версия формата : Version 2
    Продолжительность : 2 м. 10 с.
    Вид битрейта : Переменный
    Ширина : 720 пикселей
    Высота : 576 пикселей
    Соотношение сторон : 16:9
    Частота кадров : 25,000 кадров/сек
    Стандарт вещания : PAL
    Метод сжатия : С потерями
    Аудио
    Идентификатор : 128 (0x80)
    Формат : AC-3
    Формат/Информация : Audio Coding 3
    Продолжительность : 2 м. 10 с.
    Каналы : 2 канала
    Частота : 48,0 КГц
    Метод сжатия : С потерями
    Язык : Russian
    Меню
    Продолжительность : 2 м. 10 с.
    00:00:00.000 : Chapter 1
    List (Audio) : 0
    Общее
    Полное имя : I:\temp\Мексиканский вояж Степаныча (2012) DVD9\VIDEO_TS\VTS_08_1.VOB
    Формат : MPEG-PS
    Размер файла : 78,8 Мбайт
    Продолжительность : 2 м. 9 с.
    Режим общего битрейта : Переменный
    Общий поток : 5100 Кбит/сек
    Видео
    Идентификатор : 224 (0xE0)
    Формат : MPEG Video
    Версия формата : Version 2
    Профиль формата : Main@Main
    Настройки формата : BVOP
    Параметр BVOP формата : Да
    Параметр матрицы формата : По умолчанию
    Параметр GOP формата : M=3, N=12
    Продолжительность : 2 м. 9 с.
    Вид битрейта : Переменный
    Битрейт : 4775 Кбит/сек
    Максимальный битрейт : 7800 Кбит/сек
    Ширина : 720 пикселей
    Высота : 576 пикселей
    Соотношение сторон : 16:9
    Частота кадров : 25,000 кадров/сек
    Стандарт вещания : PAL
    Цветовое пространство : YUV
    Субдискретизация насыщенности : 4:2:0
    Битовая глубина : 8 бит
    Тип развёртки : Прогрессивная
    Метод сжатия : С потерями
    Бит/(Пиксели*Кадры) : 0.461
    Временной код первого кадра : 00:00:00:00
    Оригинал временного кода : Group of pictures header
    GOP, открыто/закрыто : Открыто
    GOP, открыто/закрыто на первом кадре : Закрыто
    Размер потока : 73,8 Мбайт (94%)
    Аудио
    Идентификатор : 189 (0xBD)-128 (0x80)
    Формат : AC-3
    Формат/Информация : Audio Coding 3
    Коммерческое название : Dolby Digital
    Режим смешивания : DVD-Video
    Продолжительность : 2 м. 9 с.
    Вид битрейта : Постоянный
    Битрейт : 224 Кбит/сек
    Каналы : 2 канала
    Channel layout : L R
    Частота : 48,0 КГц
    Частота кадров : 31,250 кадров/сек (1536 SPF)
    Битовая глубина : 16 бит
    Метод сжатия : С потерями
    Размер потока : 3,46 Мбайт (4%)
    ServiceKind/String : Complete Main
    Меню
    Общее
    Полное имя : I:\temp\Мексиканский вояж Степаныча (2012) DVD9\VIDEO_TS\VTS_09_0.BUP
    Формат : DVD Video
    Профиль формата : Program
    Размер файла : 14,0 Кбайт
    Продолжительность : 2 м. 20 с.
    Режим общего битрейта : Переменный
    Общий поток : 819 бит/сек
    FileExtension_Invalid : ifo
    Видео
    Идентификатор : 224 (0xE0)
    Формат : MPEG Video
    Версия формата : Version 2
    Продолжительность : 2 м. 20 с.
    Вид битрейта : Переменный
    Ширина : 720 пикселей
    Высота : 576 пикселей
    Соотношение сторон : 16:9
    Частота кадров : 25,000 кадров/сек
    Стандарт вещания : PAL
    Метод сжатия : С потерями
    Аудио
    Идентификатор : 128 (0x80)
    Формат : AC-3
    Формат/Информация : Audio Coding 3
    Продолжительность : 2 м. 20 с.
    Каналы : 2 канала
    Частота : 48,0 КГц
    Метод сжатия : С потерями
    Язык : Russian
    Меню
    Продолжительность : 2 м. 20 с.
    00:00:00.000 : Chapter 1
    List (Audio) : 0
    Общее
    Полное имя : I:\temp\Мексиканский вояж Степаныча (2012) DVD9\VIDEO_TS\VTS_09_0.IFO
    Формат : DVD Video
    Профиль формата : Program
    Размер файла : 14,0 Кбайт
    Продолжительность : 2 м. 20 с.
    Режим общего битрейта : Переменный
    Общий поток : 819 бит/сек
    Видео
    Идентификатор : 224 (0xE0)
    Формат : MPEG Video
    Версия формата : Version 2
    Продолжительность : 2 м. 20 с.
    Вид битрейта : Переменный
    Ширина : 720 пикселей
    Высота : 576 пикселей
    Соотношение сторон : 16:9
    Частота кадров : 25,000 кадров/сек
    Стандарт вещания : PAL
    Метод сжатия : С потерями
    Аудио
    Идентификатор : 128 (0x80)
    Формат : AC-3
    Формат/Информация : Audio Coding 3
    Продолжительность : 2 м. 20 с.
    Каналы : 2 канала
    Частота : 48,0 КГц
    Метод сжатия : С потерями
    Язык : Russian
    Меню
    Продолжительность : 2 м. 20 с.
    00:00:00.000 : Chapter 1
    List (Audio) : 0
    Общее
    Полное имя : I:\temp\Мексиканский вояж Степаныча (2012) DVD9\VIDEO_TS\VTS_09_1.VOB
    Формат : MPEG-PS
    Размер файла : 105 Мбайт
    Продолжительность : 2 м. 19 с.
    Режим общего битрейта : Переменный
    Общий поток : 6330 Кбит/сек
    Видео
    Идентификатор : 224 (0xE0)
    Формат : MPEG Video
    Версия формата : Version 2
    Профиль формата : Main@Main
    Настройки формата : BVOP
    Параметр BVOP формата : Да
    Параметр матрицы формата : По умолчанию
    Параметр GOP формата : M=3, N=12
    Продолжительность : 2 м. 19 с.
    Вид битрейта : Переменный
    Битрейт : 5980 Кбит/сек
    Максимальный битрейт : 7800 Кбит/сек
    Ширина : 720 пикселей
    Высота : 576 пикселей
    Соотношение сторон : 16:9
    Частота кадров : 25,000 кадров/сек
    Стандарт вещания : PAL
    Цветовое пространство : YUV
    Субдискретизация насыщенности : 4:2:0
    Битовая глубина : 8 бит
    Тип развёртки : Прогрессивная
    Метод сжатия : С потерями
    Бит/(Пиксели*Кадры) : 0.577
    Временной код первого кадра : 00:00:00:00
    Оригинал временного кода : Group of pictures header
    GOP, открыто/закрыто : Открыто
    GOP, открыто/закрыто на первом кадре : Закрыто
    Размер потока : 99,2 Мбайт (94%)
    Аудио
    Идентификатор : 189 (0xBD)-128 (0x80)
    Формат : AC-3
    Формат/Информация : Audio Coding 3
    Коммерческое название : Dolby Digital
    Режим смешивания : DVD-Video
    Продолжительность : 2 м. 19 с.
    Вид битрейта : Постоянный
    Битрейт : 224 Кбит/сек
    Каналы : 2 канала
    Channel layout : L R
    Частота : 48,0 КГц
    Частота кадров : 31,250 кадров/сек (1536 SPF)
    Битовая глубина : 16 бит
    Метод сжатия : С потерями
    Размер потока : 3,72 Мбайт (4%)
    ServiceKind/String : Complete Main
    Меню
    Общее
    Полное имя : I:\temp\Мексиканский вояж Степаныча (2012) DVD9\VIDEO_TS\VTS_10_0.BUP
    Формат : DVD Video
    Профиль формата : Program
    Размер файла : 14,0 Кбайт
    Продолжительность : 1 м. 54 с.
    Режим общего битрейта : Переменный
    Общий поток : 1001 бит/сек
    FileExtension_Invalid : ifo
    Видео
    Идентификатор : 224 (0xE0)
    Формат : MPEG Video
    Версия формата : Version 2
    Продолжительность : 1 м. 54 с.
    Вид битрейта : Переменный
    Ширина : 720 пикселей
    Высота : 576 пикселей
    Соотношение сторон : 16:9
    Частота кадров : 25,000 кадров/сек
    Стандарт вещания : PAL
    Метод сжатия : С потерями
    Аудио
    Идентификатор : 128 (0x80)
    Формат : AC-3
    Формат/Информация : Audio Coding 3
    Продолжительность : 1 м. 54 с.
    Каналы : 2 канала
    Частота : 48,0 КГц
    Метод сжатия : С потерями
    Язык : Russian
    Меню
    Продолжительность : 1 м. 54 с.
    00:00:00.000 : Chapter 1
    List (Audio) : 0
    Общее
    Полное имя : I:\temp\Мексиканский вояж Степаныча (2012) DVD9\VIDEO_TS\VTS_10_0.IFO
    Формат : DVD Video
    Профиль формата : Program
    Размер файла : 14,0 Кбайт
    Продолжительность : 1 м. 54 с.
    Режим общего битрейта : Переменный
    Общий поток : 1001 бит/сек
    Видео
    Идентификатор : 224 (0xE0)
    Формат : MPEG Video
    Версия формата : Version 2
    Продолжительность : 1 м. 54 с.
    Вид битрейта : Переменный
    Ширина : 720 пикселей
    Высота : 576 пикселей
    Соотношение сторон : 16:9
    Частота кадров : 25,000 кадров/сек
    Стандарт вещания : PAL
    Метод сжатия : С потерями
    Аудио
    Идентификатор : 128 (0x80)
    Формат : AC-3
    Формат/Информация : Audio Coding 3
    Продолжительность : 1 м. 54 с.
    Каналы : 2 канала
    Частота : 48,0 КГц
    Метод сжатия : С потерями
    Язык : Russian
    Меню
    Продолжительность : 1 м. 54 с.
    00:00:00.000 : Chapter 1
    List (Audio) : 0
    Общее
    Полное имя : I:\temp\Мексиканский вояж Степаныча (2012) DVD9\VIDEO_TS\VTS_10_1.VOB
    Формат : MPEG-PS
    Размер файла : 84,2 Мбайт
    Продолжительность : 1 м. 54 с.
    Режим общего битрейта : Переменный
    Общий поток : 6188 Кбит/сек
    Видео
    Идентификатор : 224 (0xE0)
    Формат : MPEG Video
    Версия формата : Version 2
    Профиль формата : Main@Main
    Настройки формата : BVOP
    Параметр BVOP формата : Да
    Параметр матрицы формата : По умолчанию
    Параметр GOP формата : M=3, N=12
    Продолжительность : 1 м. 54 с.
    Вид битрейта : Переменный
    Битрейт : 5841 Кбит/сек
    Максимальный битрейт : 7800 Кбит/сек
    Ширина : 720 пикселей
    Высота : 576 пикселей
    Соотношение сторон : 16:9
    Частота кадров : 25,000 кадров/сек
    Стандарт вещания : PAL
    Цветовое пространство : YUV
    Субдискретизация насыщенности : 4:2:0
    Битовая глубина : 8 бит
    Тип развёртки : Прогрессивная
    Метод сжатия : С потерями
    Бит/(Пиксели*Кадры) : 0.563
    Временной код первого кадра : 00:00:00:00
    Оригинал временного кода : Group of pictures header
    GOP, открыто/закрыто : Открыто
    GOP, открыто/закрыто на первом кадре : Закрыто
    Размер потока : 79,5 Мбайт (94%)
    Аудио
    Идентификатор : 189 (0xBD)-128 (0x80)
    Формат : AC-3
    Формат/Информация : Audio Coding 3
    Коммерческое название : Dolby Digital
    Режим смешивания : DVD-Video
    Продолжительность : 1 м. 54 с.
    Вид битрейта : Постоянный
    Битрейт : 224 Кбит/сек
    Каналы : 2 канала
    Channel layout : L R
    Частота : 48,0 КГц
    Частота кадров : 31,250 кадров/сек (1536 SPF)
    Битовая глубина : 16 бит
    Метод сжатия : С потерями
    Размер потока : 3,05 Мбайт (4%)
    ServiceKind/String : Complete Main
    Меню
    Общее
    Полное имя : I:\temp\Мексиканский вояж Степаныча (2012) DVD9\VIDEO_TS\VTS_11_0.BUP
    Формат : DVD Video
    Профиль формата : Program
    Размер файла : 14,0 Кбайт
    Продолжительность : 2 м. 19 с.
    Режим общего битрейта : Переменный
    Общий поток : 825 бит/сек
    FileExtension_Invalid : ifo
    Видео
    Идентификатор : 224 (0xE0)
    Формат : MPEG Video
    Версия формата : Version 2
    Продолжительность : 2 м. 19 с.
    Вид битрейта : Переменный
    Ширина : 720 пикселей
    Высота : 576 пикселей
    Соотношение сторон : 16:9
    Частота кадров : 25,000 кадров/сек
    Стандарт вещания : PAL
    Метод сжатия : С потерями
    Аудио
    Идентификатор : 128 (0x80)
    Формат : AC-3
    Формат/Информация : Audio Coding 3
    Продолжительность : 2 м. 19 с.
    Каналы : 2 канала
    Частота : 48,0 КГц
    Метод сжатия : С потерями
    Язык : Russian
    Меню
    Продолжительность : 2 м. 19 с.
    00:00:00.000 : Chapter 1
    List (Audio) : 0
    Общее
    Полное имя : I:\temp\Мексиканский вояж Степаныча (2012) DVD9\VIDEO_TS\VTS_11_0.IFO
    Формат : DVD Video
    Профиль формата : Program
    Размер файла : 14,0 Кбайт
    Продолжительность : 2 м. 19 с.
    Режим общего битрейта : Переменный
    Общий поток : 825 бит/сек
    Видео
    Идентификатор : 224 (0xE0)
    Формат : MPEG Video
    Версия формата : Version 2
    Продолжительность : 2 м. 19 с.
    Вид битрейта : Переменный
    Ширина : 720 пикселей
    Высота : 576 пикселей
    Соотношение сторон : 16:9
    Частота кадров : 25,000 кадров/сек
    Стандарт вещания : PAL
    Метод сжатия : С потерями
    Аудио
    Идентификатор : 128 (0x80)
    Формат : AC-3
    Формат/Информация : Audio Coding 3
    Продолжительность : 2 м. 19 с.
    Каналы : 2 канала
    Частота : 48,0 КГц
    Метод сжатия : С потерями
    Язык : Russian
    Меню
    Продолжительность : 2 м. 19 с.
    00:00:00.000 : Chapter 1
    List (Audio) : 0
    Общее
    Полное имя : I:\temp\Мексиканский вояж Степаныча (2012) DVD9\VIDEO_TS\VTS_11_1.VOB
    Формат : MPEG-PS
    Размер файла : 108 Мбайт
    Продолжительность : 2 м. 18 с.
    Режим общего битрейта : Переменный
    Общий поток : 6550 Кбит/сек
    Видео
    Идентификатор : 224 (0xE0)
    Формат : MPEG Video
    Версия формата : Version 2
    Профиль формата : Main@Main
    Настройки формата : BVOP
    Параметр BVOP формата : Да
    Параметр матрицы формата : По умолчанию
    Параметр GOP формата : M=3, N=12
    Продолжительность : 2 м. 18 с.
    Вид битрейта : Переменный
    Битрейт : 6196 Кбит/сек
    Максимальный битрейт : 7800 Кбит/сек
    Ширина : 720 пикселей
    Высота : 576 пикселей
    Соотношение сторон : 16:9
    Частота кадров : 25,000 кадров/сек
    Стандарт вещания : PAL
    Цветовое пространство : YUV
    Субдискретизация насыщенности : 4:2:0
    Битовая глубина : 8 бит
    Тип развёртки : Прогрессивная
    Метод сжатия : С потерями
    Бит/(Пиксели*Кадры) : 0.598
    Временной код первого кадра : 00:00:00:00
    Оригинал временного кода : Group of pictures header
    GOP, открыто/закрыто : Открыто
    GOP, открыто/закрыто на первом кадре : Закрыто
    Размер потока : 102 Мбайт (95%)
    Аудио
    Идентификатор : 189 (0xBD)-128 (0x80)
    Формат : AC-3
    Формат/Информация : Audio Coding 3
    Коммерческое название : Dolby Digital
    Режим смешивания : DVD-Video
    Продолжительность : 2 м. 18 с.
    Вид битрейта : Постоянный
    Битрейт : 224 Кбит/сек
    Каналы : 2 канала
    Channel layout : L R
    Частота : 48,0 КГц
    Частота кадров : 31,250 кадров/сек (1536 SPF)
    Битовая глубина : 16 бит
    Метод сжатия : С потерями
    Размер потока : 3,69 Мбайт (3%)
    ServiceKind/String : Complete Main
    Меню
    Общее
    Полное имя : I:\temp\Мексиканский вояж Степаныча (2012) DVD9\VIDEO_TS\VTS_12_0.BUP
    Формат : DVD Video
    Профиль формата : Program
    Размер файла : 14,0 Кбайт
    Продолжительность : 2 м. 18 с.
    Режим общего битрейта : Переменный
    Общий поток : 831 бит/сек
    FileExtension_Invalid : ifo
    Видео
    Идентификатор : 224 (0xE0)
    Формат : MPEG Video
    Версия формата : Version 2
    Продолжительность : 2 м. 18 с.
    Вид битрейта : Переменный
    Ширина : 720 пикселей
    Высота : 576 пикселей
    Соотношение сторон : 16:9
    Частота кадров : 25,000 кадров/сек
    Стандарт вещания : PAL
    Метод сжатия : С потерями
    Аудио
    Идентификатор : 128 (0x80)
    Формат : AC-3
    Формат/Информация : Audio Coding 3
    Продолжительность : 2 м. 18 с.
    Каналы : 2 канала
    Частота : 48,0 КГц
    Метод сжатия : С потерями
    Язык : Russian
    Меню
    Продолжительность : 2 м. 18 с.
    00:00:00.000 : Chapter 1
    List (Audio) : 0
    Общее
    Полное имя : I:\temp\Мексиканский вояж Степаныча (2012) DVD9\VIDEO_TS\VTS_12_0.IFO
    Формат : DVD Video
    Профиль формата : Program
    Размер файла : 14,0 Кбайт
    Продолжительность : 2 м. 18 с.
    Режим общего битрейта : Переменный
    Общий поток : 831 бит/сек
    Видео
    Идентификатор : 224 (0xE0)
    Формат : MPEG Video
    Версия формата : Version 2
    Продолжительность : 2 м. 18 с.
    Вид битрейта : Переменный
    Ширина : 720 пикселей
    Высота : 576 пикселей
    Соотношение сторон : 16:9
    Частота кадров : 25,000 кадров/сек
    Стандарт вещания : PAL
    Метод сжатия : С потерями
    Аудио
    Идентификатор : 128 (0x80)
    Формат : AC-3
    Формат/Информация : Audio Coding 3
    Продолжительность : 2 м. 18 с.
    Каналы : 2 канала
    Частота : 48,0 КГц
    Метод сжатия : С потерями
    Язык : Russian
    Меню
    Продолжительность : 2 м. 18 с.
    00:00:00.000 : Chapter 1
    List (Audio) : 0

    Скриншоты меню

    Скриншоты

    Скриншоты доп. материалов